<?xml version="1.0" standalone="no"?>
<!DOCTYPE svg PUBLIC "-//W3C//DTD SVG 1.1//EN" "http://www.w3.org/Graphics/SVG/1.1/DTD/svg11.dtd" >
<svg xmlns="http://www.w3.org/2000/svg">
<metadata>Generated by IcoMoon</metadata>
<defs>
<font id="iconfont-steinenschanze" horiz-adv-x="1024">
<font-face units-per-em="1024" ascent="960" descent="-64" />
<missing-glyph horiz-adv-x="1024" />
<glyph unicode="&#x20;" horiz-adv-x="512" d="" />
<glyph unicode="&#xe900;" glyph-name="arrow-down" d="M527.523 150.434h56.11l-70.137-208.916-73.128 208.916h59.1v815.084h28.055v-815.084z" />
<glyph unicode="&#xe901;" glyph-name="arrow-left" d="M208.916 437.996v-56.11l-208.916 70.137 208.916 73.128v-59.1h815.084v-28.055h-815.084z" />
<glyph unicode="&#xe902;" glyph-name="arrow-right" d="M815.084 469.041v56.11l208.916-70.137-208.916-73.128v59.1h-815.084v28.055h815.084z" />
<glyph unicode="&#xe903;" glyph-name="arrow-up" d="M496.477 756.603h-56.11l70.137 208.916 73.128-208.916h-59.1v-815.084h-28.055v815.084z" />
<glyph unicode="&#xe904;" glyph-name="chevron-down" d="M8.597 711.89c-5.46-5.416-8.551-12.776-8.596-20.466-0.072-7.714 3.037-15.117 8.596-20.466l482.596-482.596c5.403-5.475 12.774-8.556 20.466-8.556s15.063 3.082 20.466 8.556l482.698 482.596c7.724 7.225 10.895 18.087 8.271 28.333s-10.625 18.247-20.871 20.871c-10.246 2.624-21.108-0.547-28.333-8.271l-462.232-462.129-462.129 462.129c-5.417 5.449-12.783 8.513-20.466 8.513s-15.050-3.064-20.466-8.513z" />
<glyph unicode="&#xe905;" glyph-name="chevron-left" d="M775.89 951.403c-5.416 5.46-12.776 8.551-20.466 8.596-7.714 0.072-15.117-3.037-20.466-8.596l-482.596-482.596c-5.475-5.403-8.556-12.774-8.556-20.466s3.082-15.063 8.556-20.466l482.596-482.698c7.225-7.724 18.087-10.895 28.333-8.271s18.247 10.625 20.871 20.871c2.624 10.246-0.547 21.108-8.271 28.333l-462.129 462.232 462.129 462.129c5.449 5.417 8.513 12.783 8.513 20.466s-3.064 15.050-8.513 20.466z" />
<glyph unicode="&#xe906;" glyph-name="chevron-right" d="M248.11-55.403c5.416-5.46 12.776-8.551 20.466-8.596 7.714-0.072 15.117 3.037 20.466 8.596l482.596 482.596c5.475 5.403 8.556 12.774 8.556 20.466s-3.082 15.063-8.556 20.466l-482.596 482.698c-7.225 7.724-18.087 10.895-28.333 8.271s-18.247-10.625-20.871-20.871c-2.624-10.246 0.547-21.108 8.271-28.333l462.129-462.232-462.129-462.129c-5.449-5.417-8.513-12.783-8.513-20.466s3.064-15.050 8.513-20.466z" />
<glyph unicode="&#xe907;" glyph-name="chevron-up" d="M1015.403 184.11c5.46 5.416 8.551 12.776 8.596 20.466 0.072 7.714-3.037 15.117-8.596 20.466l-482.596 482.596c-5.403 5.475-12.774 8.556-20.466 8.556s-15.063-3.082-20.466-8.556l-482.698-482.596c-7.724-7.225-10.895-18.087-8.271-28.333s10.625-18.247 20.871-20.871c10.246-2.624 21.108 0.547 28.333 8.271l462.232 462.129 462.129-462.129c5.417-5.449 12.783-8.513 20.466-8.513s15.050 3.064 20.466 8.513z" />
<glyph unicode="&#xe908;" glyph-name="chevron2-down" d="M1024 665.537l-109.067 108.145-403.855-443.551-402.011 443.551-109.067-108.145 512-543.22z" />
<glyph unicode="&#xe909;" glyph-name="chevron2-left" d="M729.537-64l108.145 109.067-443.551 403.855 443.551 402.011-108.145 109.067-543.22-512z" />
<glyph unicode="&#xe90a;" glyph-name="chevron2-right" d="M294.463 960l-108.145-109.067 443.551-403.855-443.551-402.011 108.145-109.067 543.22 512z" />
<glyph unicode="&#xe90b;" glyph-name="chevron2-up" d="M-3.719 239.432l107.163-110.032 411.534 436.436 394.209-450.5 110.938 106.225-502.442 552.072z" />
<glyph unicode="&#xe90c;" glyph-name="navi" horiz-adv-x="1241" d="M0 960h1241.212v-62.061h-1241.212v62.061zM0 494.545h1241.212v-62.061h-1241.212v62.061zM0-1.939h1241.212v-62.061h-1241.212v62.061z" />
<glyph unicode="&#xe90d;" glyph-name="close" d="M458.105 448l-458.105 458.105 53.895 53.895 458.105-458.105 458.105 458.105 53.895-53.895-458.105-458.105 458.105-458.105-53.895-53.895-458.105 458.105-458.105-458.105-53.895 53.895 458.105 458.105z" />
<glyph unicode="&#xe90e;" glyph-name="bed" d="M0 781.913h38.161v-667.826h-38.161v667.826zM974.912 571.472h38.161v-457.385h-38.161v457.385zM92.103 298.521h831.024v-38.161h-831.024v38.161zM119.77 389.193v0.019h-38.161v175.6h206.167l2.366-0.611c18.451-4.77 52.3-17.879 71.896-51.881 4.713-8.186 8.281-17.077 10.59-26.446l0.553-2.252v-29.995h-38.161v25.206c-1.45 5.095-3.473 9.941-6.049 14.406-11.945 20.703-33.181 29.69-46.175 33.391h-163.026v-99.277h801.2v-38.161h-801.2z" />
<glyph unicode="&#xe90f;" glyph-name="world" horiz-adv-x="904" d="M829.909 223.791c8.924-8.924 6.693-22.309-2.231-31.233-84.775-78.083-196.322-124.932-312.331-129.394v-53.542h51.311c13.386 0 22.31-8.924 22.31-22.309s-8.924-22.309-22.31-22.309h-147.242c-13.386 0-22.309 8.924-22.309 22.309s8.924 22.309 22.309 22.309h51.311v51.312c-261.020 13.386-470.728 229.787-470.728 495.268 0 136.087 58.004 267.712 156.166 361.412 8.924 8.924 22.309 8.924 31.233 0s8.924-22.309 0-31.233c-91.468-87.007-142.78-207.477-142.78-330.179 0-247.634 200.784-450.649 448.418-450.649 113.778 0 220.863 42.388 303.407 118.24 11.155 8.924 24.54 8.924 33.464 0zM82.545 549.508c0 225.325 185.168 410.492 410.492 410.492s410.492-182.937 410.492-410.492c0-225.325-182.937-410.492-410.492-410.492-225.325 0-410.492 185.168-410.492 410.492zM330.179 741.368h327.948c-35.695 100.392-95.93 169.551-165.089 169.551s-129.394-66.928-162.858-169.551zM316.793 696.749c-11.155-44.619-17.847-95.93-17.847-147.242s6.693-102.623 17.847-147.242h354.719c11.155 44.619 17.847 95.93 17.847 147.242s-6.693 102.623-17.847 147.242h-354.719zM658.126 357.647h-327.948c35.695-100.392 95.93-169.551 165.089-169.551s127.164 69.159 162.858 169.551zM254.327 549.508c0 51.312 6.693 102.623 15.617 147.242h-109.316c-20.078-44.619-31.233-95.93-31.233-147.242s11.155-102.623 31.233-147.242h109.316c-11.155 44.619-15.617 95.93-15.617 147.242zM359.181 210.405c-33.464 37.926-60.235 87.007-78.083 147.242h-98.161c42.388-66.928 102.623-118.24 176.244-147.242zM803.137 357.647h-98.161c-17.848-60.235-44.619-109.316-78.083-147.242 73.621 29.002 136.087 80.314 176.244 147.242zM858.911 549.508c0 53.542-11.155 102.623-31.233 147.242h-109.316c11.155-44.619 15.617-95.93 15.617-147.242s-6.693-102.623-15.617-147.242h109.316c20.079 44.619 31.233 95.93 31.233 147.242zM626.893 888.61c33.464-37.926 60.235-87.007 78.083-147.242h98.161c-40.157 66.928-102.623 118.24-176.244 147.242zM182.937 741.368h98.161c17.848 60.235 44.619 109.316 78.083 147.242-73.621-29.002-133.856-80.314-176.244-147.242z" />
<glyph unicode="&#xe910;" glyph-name="phone" horiz-adv-x="1086" d="M71.424 959.975c-20.19-0.087-37.786-9.419-50.731-22.243-12.751-17.371-21.040-34.632-20.682-51.51 10.189-298.62 104.581-537.449 275.119-700.86 170.766-163.629 416.298-249.883 723.115-249.359 19.735 2.736 38.894 11.251 51.121 23.024 12.965 12.77 22.938 30.019 23.024 50.341 0.516 71.134 1.056 142.376 1.56 213.456-0.578 19.897-10.373 36.396-23.415 48.78s-30.472 21.625-50.731 21.463c-66.879-0.262-156.256 23.075-228.291 40.974-8.18 2.053-17.343-0.387-23.414-6.243l-126.438-122.534c-153.836 91.488-221.007 156.732-314.924 305.944l125.657 121.753c6.38 6.215 9.021 16.004 6.634 24.585-19.218 71.941-52.291 167.765-46.829 238.823-1.036 19.256-17.594 36.578-30.048 46.048-13.148 9.843-30.61 18.098-51.121 17.56-79.869 0-159.738 0-239.608 0zM71.424 910.025c80.232 0 160.629 0 240.777 0 5.587 0.21 13.129-2.734 19.903-7.805 6.040-4.522 9.858-10.044 10.927-11.707-3.499-80.886 25.418-166.854 43.707-231.799l-129.56-126.045c-8.183-7.858-9.899-21.589-3.903-31.219 106.221-172.177 182.442-245.992 359.411-349.259 9.323-5.515 22.248-4.004 30.048 3.513l130.34 126.825c69.166-17.392 153.391-39.706 227.119-39.413 3.93 0 10.786-2.464 16-7.415s7.73-11.471 7.805-14.048l-1.561-211.897c-0.013-3.209-2.441-9.937-7.805-15.22s-13.089-8.302-17.951-8.584c-296.666-0.212-527.244 82.792-686.822 235.701-159.865 153.184-250.24 378.052-259.899 667.69 0.23 5.753 4.17 9.42 6.244 12.877 4.129 4.664 10.437 5.859 15.219 7.805z" />
<glyph unicode="&#xe911;" glyph-name="woman" horiz-adv-x="819" d="M608.978 391.567c-7.844-0.362-15.050-0.696-22.809-1.054-0.921 5.13-2.212 9.936-2.525 14.804-0.251 3.876-0.623 7.526-2.463 10.983-0.575 1.080-0.785 2.355-2.056 3.575-0.289-1.751-0.789-3.496-0.828-5.252-0.121-5.417-0.344-10.858-0.011-16.258 0.465-7.518-1.598-14.502-3.653-21.539-1.181-4.049-2.779-7.941-3.869-12.052-0.998-3.771-3.704-7.267-6.253-10.395-2.655-3.259-6.068-5.885-9.068-8.869-7.302-7.254-15.089-13.872-24.247-18.681-2.182-1.146-4.484-2.079-6.769-3.013-5.932-2.423-11.831-4.947-17.859-7.105-2.406-0.862-5.105-1.007-7.69-1.225-3.323-0.279-6.677-0.538-10-0.393-7.393 0.325-14.872-0.266-22.116 1.96-2.067 0.636-4.251 1.238-6.381 1.234-6.795-0.011-13.318 1.552-19.878 2.97-2.845 0.615-5.674 1.354-8.55 1.782-11.132 1.659-22.337 2.897-33.398 4.936-6.28 1.159-12.337 3.437-17.904 6.914-4.614 2.878-6.472 7.3-8.149 12.043-0.72 2.032-1.587 4.061-2.73 5.874-3.816 6.065-5.711 12.75-7.133 19.704-1.49 7.296 0.341 14.3 1.313 21.352 1.159 8.406 2.477 16.835 4.511 25.059 2.029 8.213 4.975 16.203 7.62 24.258 1.965 5.985 4.063 11.925 6.15 17.869 1.115 3.178 2.34 6.317 3.499 9.48 0.762 2.085 2.135 3.393 4.352 3.907 1.26 0.292 2.439 0.928 3.665 1.378 1.276 0.468 2.461 1.842 3.966 0.369 0.231-0.226 0.93-0.246 1.241-0.066 4.363 2.542 9.030 0.887 13.853 1.174-1.673-3.35-3.283-6.176-6.524-8.204-2.49-1.558-4.158-4.425-6.243-6.659-0.989-1.060-1.955-2.294-3.193-2.934-2.924-1.508-3.849-3.933-4.475-6.984-1.825-8.892-4.403-17.649-5.885-26.591-1.911-11.569-2.821-23.242 0.132-34.884 0.877-3.468 2.215-6.927 1.153-10.757-0.295-1.069 0.732-2.864 1.655-3.857 5.081-5.485 10.255-10.955 17.018-14.388 3.232-1.642 6.771-2.682 10.185-3.951 2.455-0.915 4.953-1.703 7.397-2.638 5.667-2.168 11.656-2.64 17.588-3.174 3.865-0.347 7.8 0.079 11.705 0.152 0.586 0.011 1.283 0.187 1.738-0.064 2.279-1.267 4.691-1.058 8.010-0.327-0.937-1.056-1.174-1.556-1.547-1.705-4.879-1.931-9.792-3.78-14.666-5.72-1.695-0.674-3.395-1.119-4.409-3.154-1.002-2.017-3.457-1.659-5.436-1.729-2.596-0.090-5.196-0.182-7.791-0.118-2.323 0.057-4.64 0.422-6.965 0.478-6.143 0.14-12.291 0.187-18.435 0.248-0.394 0.004-0.787-0.206-1.148-0.309-0.031-0.371-0.165-0.825-0.060-0.889 4.037-2.474 7.765-5.413 12.743-6.146 8.836-1.299 17.698-1.885 26.587-1.363 8.433 0.494 16.839 1.414 25.254 2.16 3.486 0.31 6.979 0.569 10.449 1.010 12.201 1.549 24.012 4.372 35.258 9.655 6.884 3.233 12.161 8.387 17.952 12.978 1.089 0.862 2.442 1.383 3.658 2.090 0.725 0.421 1.597 0.753 2.096 1.372 4.273 5.309 8.376 10.7 11.344 16.94 4.799 10.088 8.078 20.713 11.641 31.246 0.414 1.22 0.952 2.399 1.523 3.828 0.881-0.562 1.531-0.981 2.184-1.4 0.201 0.307 0.441 0.522 0.489 0.77 0.439 2.28 0.829 4.568 1.271 6.848 0.855 4.442 1.88 8.858 2.563 13.325 0.579 3.793-1.141 7.179-2.686 10.476-1.3 2.772-2.94 5.384-4.458 8.051-1.738 3.053-2.014 3.161-5.044 1.901-0.926-0.386-1.796-0.904-2.66-1.345 1.172-3.558 2.631-6.916 3.343-10.426 0.72-3.56 0.892-7.267 0.95-10.919 0.060-3.542 0.967-7.386-2.419-10.454-0.681 0.797-1.401 1.503-1.965 2.316-2.289 3.29-4.976 6.113-8.505 8.119-9.964 5.669-16.797 14.359-22.91 23.802-2.616 4.037-5.299 8.204-8.732 11.492-3.213 3.079-7.382 5.2-11.273 7.504-3.252 1.927-6.703 3.508-10.766 5.603 3.9 1.438 7.069 2.779 10.672 2.109 0.39 3.005-0.037 3.977-2.168 4.194-1.578 0.162-3.202-0.167-4.808-0.2-9.015-0.187-18.038-0.601-27.052-0.45-8.6 0.145-17.189 1.234-25.783 1.255-6.388 0.013-12.776-1.053-19.17-1.576-4.89-0.4-6.719-0.167-10.367 1.199 0 1.249-0.013 2.686 0.002 4.122 0.062 6.001-0.135 12 1.071 17.956 0.469 2.305 1.316 3.841 3.215 5.36 3.898 3.123 8.223 3.865 12.776 2.935 5.614-1.144 11.203-0.362 16.533 0.604 13.205 2.392 26.453 2.601 39.758 2.386 5.476-0.086 10.119 1.13 13.056 6.269 0.568 0.99 1.721 1.627 2.355 2.594 0.784 1.194 1.694 2.506 1.884 3.859 1.424 10.132 3.702 20.033 6.873 29.776 3.074 9.449 5.826 19.012 8.455 28.599 1.741 6.343 4.801 11.813 8.829 16.969 4.495 5.757 8.325 11.931 9.85 19.344 0.666 3.246 2.063 6.416 3.59 9.383 1.622 3.152 4.131 2.959 5.824-0.175 0.895-1.655 1.697-3.362 2.565-5.035 3.55-6.848 8.431-12.603 14.222-17.651 3.534-3.082 6.362-6.541 8.177-11.143 3.654-9.26 8.036-18.231 12.143-27.311 2.6-5.744 5.282-11.448 7.856-17.203 2.197-4.908 3.925-10.068 6.516-14.75 3.678-6.646 7.886-12.968 13.514-18.262 5.011-4.713 9.713-9.761 14.492-14.721 2.832-2.943 5.562-5.985 8.307-9.010 1.9-2.090 2.869-4.392 1.481-7.206-0.15-0.301 0.134-0.817 0.297-1.642 1.794 0.568 3.479 1.098 6.018 1.899-6.331-8.995-12.606-16.861-20.144-23.606 17.201-21.749 34.324-43.395 51.89-65.603-2.558-0.737-4.694-1.705-6.879-1.828-1.077-0.061-2.572 1.216-3.297 2.285-1.64 2.414-2.831 5.129-4.369 7.618-1.377 2.232-2.686 4.623-4.53 6.424-5.127 5.013-10.39 9.8-14.514 15.812-3.964 5.779-8.635 11.075-13.036 16.55-1.922 2.39-3.801 4.846-5.976 6.991-1.52 1.497-3.495 2.533-5.289 3.744-0.602 0.408-1.549 0.555-1.86 1.097-1.157 2.019-3.188 2.228-5.18 2.594 0.818 5.147 1.869 9.963 5.282 13.457-1.534 3.218-2.898 6.233-4.403 9.173-0.864 1.69-1.787 3.396-2.97 4.864-5.418 6.719-11.335 12.959-17.46 19.056-4.603 4.583-8.041 10.165-9.808 16.732-1.133 4.201-3.228 8.159-5.046 12.157-6.007 13.209-12.15 26.356-18.097 39.591-1.796 3.999-3.056 8.237-4.687 12.313-1.423 3.553-1.501 3.519-5.363 4.866-0.308 1.673-0.663 3.521-0.983 5.373-0.297 1.701-0.558 3.407-1.121 5.138-2.556-8.2-5.617-16.108-9.129-23.872-1.727-3.813-2.918-7.965-3.719-12.085-1.754-9.030-3.265-18.093-5.861-26.951-1.501-5.121-3.023-10.281-3.539-15.654-0.079-0.834-0.494-1.699-0.948-2.425-2.594-4.146-4.343-8.843-8.171-12.19-3.314-2.897-3.561-7.056-3.222-10.907 0.26-2.967 0.372-5.755-0.251-8.672-0.798-3.74-0.439-3.957 3.122-5.209 3.393-1.194 6.816-2.55 9.35-5.209 6.445-6.765 14.069-12.408 19.056-20.573 1.622-2.66 3.805-4.109 7.64-3.376 7.109 1.361 14.153-0.336 20.977-2.515 3.741-1.194 7.439-2.555 11.062-4.071 1.904-0.797 2.977-2.423 3.927-4.436 2.752-5.823 6.022-11.4 8.979-17.131 1.474-2.856 2.812-5.795 4.028-8.773 2.983-7.326 5.923-14.669 8.752-22.057 1.186-3.099 2.047-6.324 3.272-10.167zM410.739 826.934c-1.308-3.373-2.225-5.737-3.288-8.48 1.89-0.161 3.438-0.374 4.989-0.41 3.666-0.087 6.857-1.379 9.557-3.822 3.033-2.738 6.264-3.3 10.432-2.949 6.184 0.523 11.392 3.541 17.126 5.118 2.014 0.555 3.033 2.125 3.771 4.010 1.445 3.709 3.255 7.196 6.853 10.12 2.761-5.608-0.99-9.3-3.343-13.834 2.616-1.047 5.070-2.248 7.649-2.999 2.656-0.773 4.062-0.020 5.39 2.485 1.987 3.755 3.838 7.583 5.814 11.345 0.52 0.987 1.286 1.843 2.453 3.482 0.576-2.516 1.030-4.273 1.378-6.050 0.993-5.046 6.912-9.659 11.793-9.151 2.098 0.218 4.912 3.158 4.993 5.488 0.049 1.451-0.188 2.944-0.499 4.373-1.508 6.934-2.375 13.903-1.471 21.008 0.52 4.096 2.431 7.119 6.733 9.047 4.243-7.705 9.025-14.934 11.775-23.351 0.327 2.957 0.772 5.957-1.125 8.304-4.232 5.233-5.404 11.715-7.41 17.83-1.511 4.608-2.415 9.419-3.668 14.117-0.377 1.411-0.885 2.825-1.579 4.101-3.851 7.082-5.095 14.75-4.504 22.647 0.317 4.227 1.744 8.356 2.439 12.568 0.715 4.347 1.487 8.731 1.61 13.117 0.097 3.624-1.334 6.854-5.494 8.398-0.121-0.79-0.371-1.353-0.249-1.816 2.382-8.927 1.586-17.774-0.221-26.7-0.779-3.85-0.741-7.882-0.924-11.841-0.185-3.975-0.203-7.96-0.256-11.941-0.057-4.6 0.763-9.075 2.109-13.45 0.671-2.186 0.254-4.072-1.231-5.73-1.776-1.98-3.304-1.847-5.112 0.185-5.719 6.422-9.581 13.633-9.332 23.445-0.926-1.17-1.572-1.609-1.601-2.086-0.382-6.176-0.765-12.355-0.929-18.54-0.037-1.387 0.864-2.777 1.136-4.203 0.176-0.919 0.32-2.496-0.101-2.735-0.847-0.483-2.111-0.405-3.165-0.261-0.655 0.091-1.367 0.606-1.835 1.13-2.814 3.136-6.12 5.811-7.925 9.859-1.096 2.459-2.589 4.876-5.759 6.716 0.245-6.009 1.334-11.216 4.25-15.572 3.535-5.275 3.536-11.103 3.928-16.942 0.071-1.063-0.379-2.611-1.143-3.199-2.234-1.714-4.749-3.055-7.212-4.576-1.109 3.859-1.857 7.246-3.070 10.456-1.030 2.722-2.629 5.218-3.906 7.847-0.642 1.318-1.379 2.663-1.652 4.077-1.204 6.213-2.133 12.398-1.312 18.841 0.58 4.55 0.498 9.18 2.991 13.213 1.116 1.801 2.62 3.356 4.224 5.371 1.815-2.768 0.873-5.166 1.165-7.379 0.287-2.184 0.611-4.364 1.026-7.313 0.706 1.218 1.143 1.819 1.431 2.489 4.228 9.877 5.227 20.494 6.916 30.954 0.984 6.1 1.883 12.218 3.112 18.27 0.355 1.751 1.718 3.293 2.83 5.312 7.872-7.864 7.583-18.146 9.59-27.569 0.326 0.006 0.651 0.013 0.975 0.020 0.628 3.628 1.436 7.235 1.828 10.887 0.362 3.367 0.467 6.791 0.338 10.177-0.176 4.597-1.754 8.572-5.609 11.477-2.095 1.579-3.965 3.5-5.778 5.418-1.619 1.714-3.467 2.644-5.801 2.64-5.695-0.007-11.42 0.348-17.080-0.105-6.332-0.507-11.897-2.971-15.154-9.023-2.020-3.75-3.961-7.546-5.937-11.323-0.534-1.021-1.061-2.045-1.965-3.787-2.095 2.77-4.722 4.907-5.408 7.559-0.617 2.376 0.165 5.872 1.643 7.89 2.83 3.864 6.39 7.27 10.024 10.427 4.724 4.101 10.8 5.015 16.703 6.013 4.594 0.778 9.235 1.344 13.877 1.736 2.073 0.174 4.398 0.788 6.208-1.089 0.181-0.187 0.538-0.279 0.814-0.279 6.747 0.035 12.391-3.986 18.848-5.231 4.48-0.863 8.813-3.032 12.933-5.166 4.64-2.402 6.211-7.289 7.726-11.917 0.77-2.348 0.92-4.911 1.277-7.389 1.153-8.012 2.091-16.062 3.474-24.032 0.801-4.621 2.492-9.077 3.436-13.683 1.343-6.562 4.523-11.948 8.862-16.954 3.544-4.092 6.621-8.648 9.515-13.25 3.086-4.911 5.285-10.171 3.729-16.308-0.463-1.825-0.309-3.818-0.384-5.736-0.161-4.131-1.786-7.72-4.127-10.974-2.786-3.872-6.919-4.637-11.316-4.55-1.597 0.031-3.191 0.183-5.064 0.298-1.533-2.326-3.282-4.523-4.537-6.976-2.726-5.325-6.711-9.635-10.655-13.962-1.765-1.934-4.041-3.232-6.78-3.731-7.047-1.283-7.034-1.365-11.864 0.649-1.191-3.876-2.369-7.71-3.469-11.288 4.063-1.407 7.878-2.603 11.599-4.046 9.043-3.504 16.617-9.426 23.22-16.288 3.987-4.142 6.59-9.683 9.563-14.746 0.606-1.030 0.088-2.733 0.088-4.565 0.71-0.187 1.773-0.584 2.87-0.738 7.614-1.063 14.682-3.681 21.339-7.514 1.431-0.823 2.199-1.953 2.96-3.508 2.197-4.482 5.029-8.64 7.333-13.072 3.963-7.622 9.766-13.899 14.55-20.912 1.323-1.938 2.437-4.016 3.677-6.011 2.322-3.729 4.788-7.372 6.969-11.185 2.847-4.972 5.426-10.101 8.207-15.114 3.783-6.819 7.742-13.542 11.46-20.398 6.515-12.015 14.797-23.064 19.439-36.102 3.849-10.815 7.543-21.689 11.442-32.487 1.899-5.259 4.277-10.341 6.14-15.613 3.333-9.439 6.006-19.141 9.76-28.399 4.254-10.495 9.391-20.622 14.153-30.904 0.183-0.394 0.483-0.73 0.604-0.91 13.848 1.786 33.751 0.065 40.337-3.498-0.408-3.371-0.992-6.815-1.196-10.282-0.198-3.356-0.187-6.747 0.044-10.101 0.52-7.49 1.057-14.986 1.917-22.443 0.778-6.723 1.859-13.422 3.066-20.082 0.896-4.952 1.963-9.744 0.121-14.788-1.332-3.643-4.248-5.921-6.379-8.855-1.542-2.123-3.566-3.912-5.501-5.712-1.056-0.982-2.265-2.049-3.589-2.433-5.631-1.636-11.037-3.702-15.822-7.579-0.521 0.78-1.18 1.35-1.079 1.679 1.224 3.92 2.552 7.807 3.88 11.693 0.137 0.405 0.381 0.869 0.714 1.095 3.97 2.677 7.254 6.496 12.228 7.514 1.136 0.233 2.239 0.625 3.364 0.917 2.214 0.575 3.086 1.86 2.651 4.245-0.662 3.615-1.006 7.289-1.656 10.909-0.532 2.966-1.314 5.885-4.641 6.588-1.017 7.111-1.656 14.012-3.088 20.738-0.931 4.373-1.334 8.86-3.152 13.135-1.723 4.055-1.5 8.661-0.653 13.089 0.187 0.976 0.267 1.973 0.368 2.725-14.653 4.438-28.646 0.888-43.067-2.694 0.79 3.308 3.668 3.517 5.388 4.963 1.786 1.498 3.82 2.698 5.779 3.975 2.047 1.337 4.135 2.613 6.401 4.038-2.331 2.010-4.663 3.57-6.411 5.638-2.347 2.779-4.457 5.823-6.272 8.984-1.824 3.178-3.414 6.547-4.656 9.999-2.040 5.664-3.498 11.543-5.596 17.183-2.768 7.437-5.543 14.855-9.173 21.974-3.185 6.25-5.199 13.098-7.893 19.614-2.355 5.697-4.618 11.469-7.486 16.902-4.040 7.647-9.424 14.602-10.994 23.445-0.251 1.411-0.922 2.851-1.747 4.035-4.254 6.115-6.61 13.091-9.362 19.929-2.852 7.085-5.962 14.119-9.616 20.809-5.779 10.584-12.080 20.877-18.229 31.252-0.73 1.233-1.683 2.598-2.878 3.234-3.772 2.002-6.354 5.083-8.584 8.594-2.23 3.508-4.62 6.952-8.663 8.468-2.141 0.802-4.479 1.204-6.764 1.464-6.403 0.729-12.668 2.041-18.601 4.578-5.108 2.184-9.931 1.414-14.823-0.632-7.635-3.193-15.853-3.903-23.888-5.19-4.272-0.686-8.816 0.418-13.105-0.218-13.37-1.98-26.795-1.601-40.22-1.697-7.089-0.050-13.8 1.66-20.694 4.36 1.703 3.548 4.127 6.246 7.051 8.309 1.136 0.799 3.107 0.688 4.652 0.54 10.425-0.998 20.893-1.725 31.23-3.33 7.452-1.157 14.508-0.316 21.575 1.679 1.63 0.46 3.121 1.437 4.667 2.193 0.26 0.126 0.456 0.42 0.719 0.497 7.785 2.278 9.277 9.437 11.912 15.694 0.337 0.801 0.796 1.801 0.596 2.541-1.376 5.063-0.799 10.635-4.043 15.23-1.167 1.653-1.877 3.633-2.812 5.456-0.198 0.388-0.375 0.886-0.708 1.091-5.302 3.278-10.264 7.481-17.208 6.226-2.106-0.381-4.336-0.128-6.405-0.618-8.326-1.969-16.614-4.105-24.909-6.202-2.117-0.534-4.188-1.5-6.325-1.659-3.802-0.283-6.158-2.492-8.019-5.412-4.076-6.385-10.465-8.054-17.283-8.909-0.338-0.043-0.734 0.377-1.648 0.886 1.33 3.060 2.688 6.089 3.966 9.153 2.838 6.802 8.504 10.112 14.927 12.595 5.21 2.015 5.194 2.091 4.735 7.636-0.13 1.568-0.355 3.129-0.527 4.591-3.741 0.442-7.056 0.736-10.34 1.246-4.718 0.73-6.231 2.232-7.296 6.925-0.198 0.86-0.245 1.755-0.392 2.627-0.459 2.733-1.806 4.611-4.705 5.063-2.409 0.375-4.448 1.257-5.445 3.827-0.273 0.704-1.098 1.376-1.826 1.683-2.671 1.132-5.432 2.049-8.114 3.154-2.060 0.851-3.6 2.163-4.751 4.297-4.87 9.032-2.241 17.658 3.551 24.479 2.642 3.112 5.99 5.608 8.99 8.417 2.989 2.801 6.098 5.495 8.871 8.502 3.355 3.633 5.192 8.049 6.067 13.002 1.226 6.939 2.854 13.807 4.281 20.709 0.478 2.308 0.629 4.713 1.374 6.921 0.64 1.893 1.537 4.116 3.026 5.166 1.262 0.888 3.621 0.647 5.328 0.227 0.814-0.2 1.572-1.916 1.789-3.055 0.688-3.607 1.398-7.255 1.551-10.911 0.137-3.341 0.168-6.915-0.84-10.025-1.625-5.015-4.058-9.772-6.345-14.542-0.543-1.135-1.853-1.895-2.808-2.827-0.287 0.179-0.569 0.361-0.854 0.542 0.245 1.623 0.492 3.247 0.737 4.872-0.159 0.065-0.318 0.131-0.479 0.196-0.435-0.662-0.97-1.28-1.297-1.991-3.666-8.010-9.479-14.051-16.585-19.041-2.858-2.008-5.375-4.528-7.929-6.947-2.245-2.125-3.187-5.053-3.277-7.988-0.051-1.718 0.714-3.912 1.881-5.135 4.182-4.366 9.376-6.873 15.487-7.23 1.833-0.107 3.659-0.362 6.623-0.666zM463.441 789.499c-0.467 2.149-0.856 4.131-1.332 6.092-0.52 2.137-1.809 3.056-4.102 3.079-5.962 0.055-11.647 1.008-15.187 6.827-4.444-2.639-8.804-4.837-8.895-10.728-0.011-0.693-0.582-1.359-0.714-2.073-0.331-1.806-0.99-3.646 0.031-5.566 3.419 0.488 6.705 1.106 10.018 1.387 3.339 0.285 6.711 0.174 10.062 0.353 3.277 0.178 6.63-0.592 10.117 0.629zM520.132 870.77c-0.542-0.25-1.083-0.501-1.623-0.751 5.536-8.088 6.894-18.107 12.836-26.121 0.413 1.738 0.917 3.606 0.329 5.005-3.211 7.631-7.137 14.892-11.542 21.866zM41.41 25.010c-3.036-0.556-4.413-2.248-5.508-4.397-4.196-8.231-8.438-16.437-12.687-24.641-0.111-0.217-0.468-0.304-1.356-0.847 0.421 2.062 0.559 3.707 1.106 5.193 0.865 2.337 2.043 4.552 3.016 6.848 0.683 1.622 1.716 3.278 1.775 4.948 0.179 5.005 3.054 8.718 5.156 12.883 1.691 3.351 2.471 7.169 3.693 10.767 0.793 2.341 1.489 4.731 2.516 6.963 2.203 4.797 4.353 9.642 6.948 14.22 6.481 11.443 8.622 24.138 11.328 36.774 2.391 11.172 5.825 22.118 8.797 33.165 1.791 6.657 3.675 13.288 5.322 19.982 0.634 2.591 0.115 5.245 1.133 8.005 5.676 15.389 10.974 30.926 16.337 46.435 1.239 3.587 2.225 7.263 3.329 10.898 3.967 2.195 2.904 6.412 3.338 9.71 0.585 4.445-0.142 9.053-0.087 13.586 0.064 5.283 0.419 10.563 0.532 15.846 0.046 2.077 0.977 3.6 2.815 3.955 3.477 0.676 6.439 3.593 10.406 2.335 0.729-0.232 1.822 0.665 2.733 1.072 0.98 0.436 1.946 0.91 2.943 1.377 0.268-0.696 0.525-1.020 0.452-1.221-2.043-5.526-1.558-11.288-1.538-16.997 0.024-5.924-1.053-11.563-2.939-17.216-2.686-8.051-4.431-16.422-7.073-24.49-2.644-8.080-5.812-15.99-8.901-23.915-3.196-8.202-6.57-16.334-9.872-24.493-3.528-8.703-6.88-17.485-10.637-26.085-6.182-14.141-11.311-28.628-14.992-43.634-0.151-0.619-0.020-1.306 0.632-2.175 1.543 2.937 3.413 5.749 4.577 8.832 5.262 13.94 12.897 26.637 19.923 39.66 4.103 7.605 7.857 15.404 11.858 23.065 1.625 3.11 3.602 6.033 5.213 9.15 0.918 1.773 1.279 3.834 2.141 5.644 4.036 8.456 8.068 16.916 12.292 25.276 1.822 3.609 2.923 7.244 3.088 11.332 0.213 5.265 0.929 10.509 1.407 15.765 0.153 1.685 0.889 3.46-0.968 4.83-0.374 0.276-0.308 1.33-0.253 2.009 0.672 8.462 1.254 16.936 2.154 25.376 0.319 3.024 1.121 6.095 2.301 8.889 0.603 1.423 2.531 2.274 3.549 3.125 4.537-0.304 8.682-0.58 12.964-0.869 0.211 0.58 0.558 1.105 0.576 1.641 0.337 10.137 0.762 20.273 0.869 30.412 0.038 3.607-1.206 7.254-0.991 10.828 0.441 7.272 2.914 13.365 10.4 16.474 3.569 1.481 6.705 4.084 9.939 6.325 7.418 5.138 14.748 10.408 22.175 15.533 2.808 1.939 5.791 3.622 9.754 6.081 3.061-0.805 7.363-1.983 11.692-3.049 3.231-0.796 6.463-1.713 9.75-2.081 3.296-0.366 6.43 0.738 8.684 3.289 3.196 3.611 6.377 7.274 9.143 11.215 2.115 3.016 5.029 4.832 7.866 6.852 1.516 1.081 2.381 0.32 3.041-1.35-1.474-2.571-2.968-5.243-4.532-7.874-1.11-1.873-2.248-3.609-2.068-6.049 0.080-1.074-0.938-2.399-1.764-3.333-1.419-1.608-3.076-3-4.881-4.722 1.152-0.538 1.984-0.926 3.119-1.457-0.567-0.444-0.876-0.886-1.243-0.943-4.865-0.727-9.721-1.667-14.615-2.018-5.166-0.374-9.958-1.416-14.467-4.169-2.704-1.652-5.858-2.549-8.793-3.819-0.773-0.335-1.487-0.803-2.303-1.249 0.271-0.54 0.372-1.020 0.663-1.274 4.708-4.116 9.488-8.152 14.159-12.31 3.908-3.477 4.089-5.95 1.204-10.285-1.454-2.184-2.855-4.431-4.014-6.784-2.638-5.357-7.276-8.3-12.403-10.526-2.717-1.179-5.062-2.67-7.358-4.554-2.56-2.097-5.647-3.543-8.502-5.276-0.988-0.598-2.411-0.967-2.879-1.853-2.627-4.968-8.021-7.11-11.191-11.487-2.773-3.825-6.206-6.961-10.144-9.533-1.62-1.059-1.939-2.434-1.203-4.175 0.568-1.341 1.093-2.701 1.744-4.324 2.006 1.121 3.857 2.16 6.268 3.508 0.492-1.98 1.188-3.582 1.244-5.21 0.304-8.371 0.548-16.748 0.601-25.125 0.033-4.926-0.381-9.854-0.477-14.783-0.031-1.446 0.297-2.904 0.523-4.348 1.731-11.095 0.778-22.284 1.146-33.427 0.1-3.053 0.029-6.112 0.002-9.169-0.011-1.028 0.128-2.169-0.257-3.061-3.38-7.859-1.323-15.82-0.548-23.753 0.488-4.959 1.237-9.898 1.634-14.864 0.374-4.677 0.598-9.382 0.598-14.073 0.002-4.694-0.527-9.388-0.512-14.080 0.016-5.861 0.324-11.719 0.554-17.579 0.268-6.751 0.574-13.5 0.88-20.249 0.281-6.154 0.971-12.318 0.773-18.455-0.208-6.429-1.254-12.83-1.95-19.242-0.171-1.587-0.403-3.169-0.607-4.755-5.736 0.713-8.028 3.033-8.779 8.222-0.417 2.88-1.168 5.729-2.004 8.519-1.203 4.022-1.166 8.106-1.099 12.229 0.078 4.819 0.024 9.64 0.020 14.459-0.002 1.179-0.106 2.361-0.042 3.532 0.466 8.6 1.097 17.192 1.399 25.797 0.166 4.679-0.208 9.377-0.332 14.067-0.080 2.939-0.109 5.882-0.239 8.819-0.251 5.709-0.66 11.413-0.794 17.126-0.067 2.77 0.543 5.558 0.496 8.331-0.204 11.603-0.496 23.204-0.858 34.8-0.118 3.81-0.508 7.611-0.864 11.41-0.086 0.899-0.538 1.762-1.101 3.501-1.199-1.482-2.046-2.217-2.509-3.149-7.835-15.746-15.683-31.486-23.406-47.289-6.827-13.964-13.387-28.060-20.291-41.982-3.779-7.62-8.094-14.968-12.049-22.499-5.189-9.868-10.122-19.873-15.424-29.675-5.791-10.708-11.749-21.326-17.88-31.837-4.65-7.974-9.675-15.721-14.551-23.556-3.764-6.055-9.331-8.544-16.251-8.301-0.419 0.015-1.088 0.018-1.208 0.252-1.541 3.007-4.311 1.42-6.937 1.713 0.59 2.604 0.022 5.307 3.225 6.552 1.438 0.558 2.015 2.007 1.738 3.692-0.137 0.821-0.024 1.687-0.024 2.845 1.288-0.238 2.363-0.438 3.834-0.709 8.637 12.075 12.232 26.142 15.664 40.704zM81.109 88.786c0.312-0.203 0.621-0.407 0.933-0.611 4.878 5.488 8.365 11.938 11.785 18.367 5.433 10.204 10.502 20.604 15.723 30.926 0.197 0.39 0.441 0.779 0.534 1.197 1.866 8.432 7.082 15.323 10.568 23.004 3.976 8.76 8.662 17.258 14.218 25.184 0.503 0.716 0.84 1.878 1.496 2.094 2.498 0.829 2.932 3.14 3.85 5.047 1.543 3.212 1.394 3.436-2.321 5.917-0.649-0.913-1.379-1.794-1.948-2.768-7.144-12.283-14.331-24.54-21.364-36.883-4.058-7.121-8.165-14.236-11.705-21.623-5.189-10.826-9.95-21.871-14.781-32.874-2.456-5.6-4.665-11.314-6.988-16.977zM179.165 329.473c-6.334-3.398-12.073-6.907-18.17-9.596-3.968-1.749-7.010-4.315-10.118-7.648 2.236 0 4.22-0.076 6.197 0.015 5.16 0.236 10.324 0.819 15.479 0.759 6.964-0.083 13.922-0.681 20.885-0.954 1.509-0.059 3.032 0.326 5.47 0.617-5.854 7.497-12.694 12.277-19.742 16.807zM288.53 311.669c1.374 3.876 4.475 5.639 7.044 8.027 3.514 3.267 6.444 7.196 9.529 10.921 7.856 9.474 15.686 18.968 23.469 28.501 4.442 5.437 8.868 10.897 13.105 16.499 1.481 1.956 2.866 1.947 4.875 1.198 3.842-1.432 6.493-4.334 9.56-7.285-0.739-0.672-1.264-1.381-1.965-1.752-3.685-1.962-5.287-5.613-7.46-8.893-7.863-11.866-15.443-23.939-24.647-34.852-2.957-3.505-4.479-7.872-4.895-12.523-0.748-8.352-1.304-16.722-2.2-25.057-1.407-13.049-2.574-26.080-0.797-39.195 0.257-1.886 0.036-3.834 0.089-5.753 0.275-10.308 0.595-20.617 0.847-30.927 0.416-16.947 0.68-33.9 1.217-50.842 0.403-12.8 1.334-25.581 1.646-38.381 0.241-9.688-0.27-19.393-0.166-29.086 0.099-9.269 0.516-18.538 0.885-27.802 0.294-7.355 0.653-14.707 1.12-22.052 0.347-5.425 0.93-10.832 1.368-16.25 0.343-4.253 0.666-8.507 0.916-12.763 0.432-7.35 0.784-14.701 1.211-22.049 0.104-1.755 0.305-3.514 0.587-5.247 0.848-5.194 1.761-10.378 2.72-15.993 4.539 0.343 9.069-1.131 13.429 1.986 1.671 1.19 4.43 1.015 6.706 1.093 2.31 0.078 4.634-0.384 6.956-0.469 8.825-0.33 17.651-0.613 26.477-0.899 9.461-0.305 18.921-0.581 28.382-0.89 8.877-0.29 17.753-0.565 26.627-0.914 13.962-0.552 27.92-1.615 41.877-1.589 9.999 0.018 19.993 1.475 29.993 2.274 2.175 0.173 4.355 0.356 6.535 0.406 12.791 0.281 25.563 1.713 38.374 0.707 7.101-0.556 14.196-1.166 21.287-1.825 1.12-0.103 2.206-0.592 3.829-1.050-0.201-4.581-0.385-9.105-0.602-13.627-0.124-2.564-1.562-3.618-4.019-3.579-3.355 0.057-6.714 0.028-10.071 0.031-1.427 0.002-2.875 0.146-4.282-0.035-6.666-0.869-13.26 0.161-19.895 0.495-8.002 0.402-16.031 0.229-24.051 0.236-6.666 0.007-13.334-0.031-20.001-0.155-3.485-0.065-6.962-0.473-10.445-0.528-7.25-0.116-14.502-0.020-21.752-0.155-9.459-0.175-18.917-0.509-28.378-0.738-13.398-0.321-26.842-1.403-40.189-0.685-12.953 0.698-25.777-0.681-38.668-0.624-7.978 0.037-15.963-1.216-23.936-1.1-3.331 0.048-6.61 0.353-9.879-0.369-0.967-0.214-2.359-0.487-2.715-1.176-2.826-5.484-8.638-5.993-13.285-8.424-1.646-0.86-3.35-1.611-5.236-2.51-3.067 1.482-3.959 3.389-2.41 6.669 2.175 4.611 2.771 9.345 2.142 14.38-0.489 3.933-0.763 7.911-0.861 11.873-0.064 2.625 0.35 5.26 0.56 7.889 0.062 0.733 0.31 1.48 0.215 2.187-0.989 7.42 0.004 14.943-1.215 22.364-0.666 4.055-1.104 8.175-1.273 12.279-0.203 5.002-0.352 9.947-1.418 14.904-0.688 3.2-0.272 6.683-0.108 10.024 0.294 5.873-1.68 11.632-0.445 17.593 0.617 2.97 0.115 6.128-1.837 8.835-0.538 0.748-0.613 1.955-0.62 2.953-0.055 7.213-0.111 14.428 0.004 21.639 0.042 2.783 0.898 5.58 0.737 8.335-0.431 7.473-1.226 14.924-1.832 22.388-0.235 2.881-0.27 5.779-0.52 8.658-0.504 5.851-1.534 11.694-1.531 17.54 0.007 8.37 0.768 16.737 1.162 25.109 0.137 2.946-0.007 5.908 0.232 8.843 0.454 5.565 1.213 11.107 1.607 16.674 0.248 3.516 0.148 7.065 0.066 10.594-0.243 10.153-0.677 20.301-0.805 30.456-0.108 8.544 0.188 17.091 0.144 25.637-0.015 3.21-0.551 6.412-0.708 9.624-0.168 3.379-0.354 6.777-0.197 10.153 0.442 9.467-0.195 18.821-2.217 28.068zM628.011 388.597c3.603-1.414 7.039-2.298 8.967-5.75 0.959-1.715 2.57-2.696 4.788-2.707 3.996-0.024 8.010-0.095 11.982-0.482 2.522-0.248 5.17-0.739 7.39-1.841 1.081-0.537 1.312-2.724 2.016-4.369-1.042-0.117-1.652-0.328-2.203-0.227-6.346 1.187-11.504-1.642-16.887-4.329-6.492-3.241-13.234-6.029-20.017-8.643-2.208-0.851-3.392-2.080-4.319-4.006-4.332-8.984-8.288-18.182-13.229-26.832-3.642-6.376-4.394-12.879-4.032-19.824 0.235-4.512 0.676-9.033 0.551-13.536-0.192-6.862-0.965-13.707-1.172-20.568-0.231-7.615-0.097-15.242-0.138-22.863-0.019-3.334-0.015-6.671-0.136-10.003-0.474-13.331-0.665-26.656 0.762-39.953 0.842-7.843 1.758-15.682 2.442-23.54 0.357-4.083 0.254-8.202 0.405-12.302 0.231-6.287 0.399-12.579 0.786-18.855 0.56-9.046 1.686-18.077 1.842-27.125 0.17-9.778-0.538-19.57-0.786-29.359-0.114-4.541-0.052-9.086-0.056-13.631-0.006-11.821-0.297-23.651 0.077-35.463 0.424-13.43 0.554-26.905 3.205-40.185 0.597-2.997 0.696-6.097 0.9-9.156 0.351-5.253 0.76-10.51 0.84-15.768 0.060-3.843 0.358-7.553 1.82-11.17 1.096-2.704 2.815-3.962 5.404-2.815 11.515 5.108 23.738 4.954 35.941 4.826 4.409-0.046 8.81-0.62 14.138-1.022-1.448-1.906-2.415-3.267-3.481-4.551-0.982-1.183-1.226-2.428-0.211-3.582 1.191-1.355 2.861-1.251 3.978-0.125 1.952 1.975 3.597 4.242 5.381 6.379 1.204 1.443 2.311 2.988 3.66 4.29 7.246 6.994 15.508 12.733 23.838 18.376 0.984 0.666 1.93 1.453 3.016 1.884 4.429 1.752 8.295 4.035 11.954 7.296 4.11 3.663 9.529 5.91 14.388 8.762 0.597 0.35 1.243 0.625 2.438 1.223-2.4 1.764-4.407 3.243-6.929 5.099-2.287-1.227-5.113-2.742-8.508-4.563-0.599 3.289-1.406 6.080-1.579 8.91-1.090 17.967-2.512 35.916-1.725 53.963 0.588 13.439 0.231 26.922 0.903 40.355 0.301 6.025-1.336 11.794-1.088 17.762 0.248 6.005 0.054 12.028 0.013 18.044-0.015 2.087-0.726 3.925-1.954 5.69-2.662 3.815-2.585 3.866-2.266 9.261 5.15-0.655 9.406-3.316 13.733-5.706 0.7-0.387 1.088-1.697 1.217-2.632 0.409-3.039 0.721-6.095 0.909-9.152 0.651-10.51 1.353-21.018 1.794-31.535 0.256-6.11-0.131-12.245 0.086-18.358 0.334-9.494 0.967-18.98 1.409-28.472 0.196-4.211 0.101-8.435 0.375-12.639 0.347-5.389 0.959-10.761 1.413-16.144 0.34-4.075 0.582-8.16 0.92-12.236 0.286-3.457 0.646-6.909 0.993-10.546 0.814-0.545 1.842-0.954 2.443-1.695 1.077-1.328 2.328-2.744 2.749-4.319 2.225-8.281 2.001-16.777 1.921-25.254-0.043-4.389-0.013-8.732-1.144-13.057-0.579-2.217-0.543-4.683-0.304-6.988 0.332-3.197-0.857-5.614-2.878-7.94-2.033-2.337-3.795-5.009-7.222-5.407-2.501-0.29-5.092-0.633-7.554-0.306-3.866 0.514-7.619 0.422-11.491 0.006-4.431-0.479-8.973 0.029-13.406-0.448-7.175-0.774-14.231-0.55-21.305 0.836-1.355 0.266-2.891-0.334-4.344-0.541-2.302-0.326-4.603-0.66-7.080-1.014 0 1.405 0 2.26 0 3.162-0.457 0.084-0.885 0.233-1.31 0.233-14.92 0.018-29.839 0.022-44.761 0.028-2.201 0-4.413 0.121-6.597-0.070-1.112-0.097-2.359-0.537-3.222-1.216-2.204-1.737-4.275-3.648-6.313-5.576-4.179-3.953-5.191-3.96-9.682 0.348 0.894 2.964 1 5.915-0.215 9.154-0.907 2.419-0.355 5.409-0.265 8.138 0.116 3.487 0.702 6.979 0.577 10.449-0.2 5.49-0.864 10.961-1.26 16.445-0.304 4.233-0.502 8.472-0.737 12.711-0.381 6.851-0.747 13.703-1.133 20.552-0.097 1.748-0.584 3.542-0.325 5.229 1.238 8.098-0.855 15.996-1.26 23.991-0.118 2.291-0.603 4.587-0.489 6.86 0.476 9.651-2.137 19.227-0.523 28.923 0.396 2.379-0.379 4.928-0.463 7.404-0.162 4.688-0.134 9.384-0.33 14.066-0.433 10.33-1.064 20.651-1.413 30.981-0.269 8.059-0.33 16.128-0.287 24.193 0.019 3.483 0.728 6.961 0.769 10.446 0.039 3.644-0.48 7.293-0.521 10.943-0.159 13.773-0.052 27.553-0.379 41.324-0.241 10.22-1.12 20.427-1.471 30.645-0.146 4.213 0.405 8.444 0.536 12.672 0.127 4.237 0.241 8.479 0.147 12.716-0.106 4.703-0.056 9.323 1.394 13.907 0.595 1.882 0.362 4.068 0.261 6.104-0.161 3.19-0.713 6.368-0.76 9.554-0.052 3.613 0.898 7.168 0.377 10.869-0.243 1.717 0.452 3.865 1.417 5.394 3.996 6.344 8.211 12.555 12.43 18.762 4.629 6.81 9.26 13.624 14.054 20.328 4.943 6.913 10.080 13.69 15.412 20.908zM806.574 205.648c-2.070-1.559-4.267-2.969-6.184-4.708-9.725-8.821-19.163-17.986-29.12-26.518-8.153-6.986-16.026-14.434-25.447-19.729-2.293-1.29-4.646-2.467-6.999-3.709-4.114 4.026-9.222 5.711-13.971 8.088-6.527 3.271-12.985 6.68-19.481 10.014-2.373 1.218-3.293 3.415-3.388 5.878-0.327 8.363-1.060 16.732 0.506 25.078 0.494 2.618 0.183 5.389 0.565 8.039 1.55 10.764 3.236 21.506 4.856 32.261 0.508 3.379 1.161 6.755 1.349 10.159 0.084 1.494-0.825 3.048-1.337 4.753 0.508 0.967 1.071 2.163 1.744 3.288 1.064 1.775 4.183 3.080 5.679 1.824 3.077-2.581 7.019-2.476 10.288-4.197 1.282-0.671 2.655-2.051 3.075-3.404 3.212-10.365 6.564-20.707 9.144-31.245 2.157-8.817 3.651-17.843 4.832-26.859 0.808-6.152-2.408-11.272-6.141-15.799-1.571-1.908-3.686-3.363-5.617-4.939-2.68-2.189-2.997-1.912-5.284 0.542-3.039 3.259-3.536 7.503-3.331 11.289 0.45 8.286-1.13 16.237-2.3 24.287-1.348 9.293-2.724 18.582-4.101 27.873-0.395 2.656-0.719 5.336-1.311 7.947-0.26 1.156-1.108 2.176-1.691 3.256-0.389-0.084-0.775-0.169-1.165-0.255-0.053-2.866-0.227-5.734-0.132-8.592 0.199-5.962 0.64-11.917 0.801-17.879 0.36-13.313 0.587-26.63 0.921-39.944 0.064-2.53 0.448-5.051 0.552-7.583 0.073-1.769 0.991-2.581 2.472-3.269 6.827-3.177 13.969-5.197 21.368-6.286 3.328-0.489 6.555 0.292 9.18 2.238 6.12 4.532 12.831 8.163 18.148 13.956 3.328 3.625 7.908 6.045 11.934 8.993 2.492 1.827 5.021 3.604 7.493 5.456 1.271 0.952 1.816 2.155 1.415 3.899-0.861 3.777-1.481 7.612-2.302 11.4-0.309 1.424-0.914 2.78-1.362 4.172-0.269 0.836-0.695 1.681-0.709 2.53-0.176 8.517-0.366 17.034-0.384 25.553-0.026 9.945 0.847 19.903-0.543 29.822-0.062 0.444 0.097 1.057-0.139 1.32-4.163 4.645-1.728 10.612-3.028 15.829-0.642 2.587-0.739 5.31-1.263 7.932-0.397 1.979-1.541 2.969-5.37 5.436-2.307-1.509-4.445-3.409-6.929-4.33-1.329-0.493-3.256 0.697-5.734 1.342 5.657 5.846 12.321 9.017 18.607 13.281 1.459-1.901 3.145-1.113 4.765 0.913 2.15-2.446 4.375-4.069 4.778-7.741 0.318-2.915 2.481-5.681 4.044-8.376 3.975-6.849 6.844-14.106 9.233-21.71 2.541-8.080 6.189-15.793 9.326-23.676 1.874-4.705 3.783-9.398 5.481-14.168 0.411-1.155 0.397-2.714 0.005-3.887-3.253-9.739-5.397-19.753-7.299-29.835-0.024-0.135-0.144-0.253-0.221-0.379-0.093 0.124-0.188 0.249-0.282 0.371zM269.161 463.509c6.555 2.174 12.438-1.079 19.19-1.362-2.953 5.881-0.088 9.723 2.776 13.981 4.878 7.258 9.233 14.889 13.603 22.485 1.515 2.636 2.308 5.688 3.63 8.454 2.328 4.882 4.818 9.686 7.223 14.529 1.844 3.711 5.125 5.806 8.397 7.975 2.023 1.34 3.846 2.988 5.793 4.451 1.49 1.119 3.37 1.889 4.495 3.295 3.175 3.977 6.542 7.934 8.888 12.413 1.891 3.612 2.375 7.98 3.532 11.998 1.582 5.483 3.18 10.961 4.859 16.413 0.278 0.904 1.004 1.667 1.721 2.808 3.198-2.911 4.729-6.571 6.71-9.894 0.439-0.735 0.446-1.88 1.029-2.364 1.448-1.198 1.172-2.538 0.639-3.907-1.752-4.496-3.305-9.101-5.437-13.406-2.597-5.231-5.759-10.169-8.581-15.288-4.659-8.44-9.39-16.841-13.82-25.406-5.522-10.686-12.043-20.704-18.822-30.581-3.962-5.769-7.66-11.728-11.346-17.683-0.805-1.301-1.060-2.954-1.667-4.738 2.687-1.375 5.121-2.623 8.032-4.113-2.095-3.060-3.967-5.431-5.446-8.030-2.812-4.937-5.753-9.848-8.002-15.056-3.935-9.125-7.386-18.467-11.043-27.718-0.538-1.36-1.094-2.715-1.64-4.071-1.909-4.742-3.899-9.454-5.688-14.24-1.018-2.716-2.436-4.744-5.085-6.21-7.082-3.915-14.51-6.414-22.578-6.615-2.274-0.055-4.657 0.206-6.826 0.873-6.329 1.95-12.785 3.711-18.777 6.475-3.538 1.63-6.382 4.924-9.329 7.697-0.654 0.614-0.657 2.211-0.571 3.325 0.446 5.688 1.078 11.364 1.53 17.054 0.309 3.904 1.129 7.776 0.421 11.753-0.356 2.001-0.204 4.099-0.255 6.153-0.265 10.844-0.522 21.687-0.778 32.529-0.042 1.764-0.031 3.529-0.101 5.29-0.070 1.696 0.274 2.988 1.753 4.179 1.262 1.018 1.972 2.751 3.084 4.402 6.122-0.511 12.261 0.937 18.448 2.286 1.851 0.406 4.065 0.033 5.9-0.61 4.189-1.472 8.258-3.308 12.348-5.054 1.031-0.441 1.968-1.105 3.89-2.206-2.942-0.421-4.888-0.901-6.844-0.941-5.446-0.112-10.894-0.011-16.339-0.053-3.539-0.029-7.151 0.471-9.93-2.854-0.739-0.88-2.656-0.741-4.258-1.121 0-1.358-0.155-2.658 0.022-3.907 2.077-14.74 1.535-29.565 1.43-44.373-0.040-5.427-0.442-10.849-0.511-16.277-0.052-3.913 0.339-3.854 4.083-4.758 4.294-1.037 8.442-2.711 12.691-3.985 1.279-0.382 2.759-0.715 4.013-0.436 8.114 1.812 14.289 6.646 19.261 13.251 2.189 2.909 4.841 5.562 6.506 8.754 3.698 7.091 7.023 14.395 10.266 21.719 1.652 3.733 2.77 7.708 4.191 11.549 0.883 2.386 0.59 4.29-1.746 5.624-3.633 2.071-7.158 4.358-10.884 6.236-5.831 2.943-5.936 2.944-4.052 9.302zM156.809-1.768c8.221-4.054 14.626-9.608 20.618-15.942 5.553-5.87 10.93-11.785 15.471-18.471 1.096-1.617 2.789-2.902 4.398-4.090 2.901-2.144 5.582-4.397 7.751-7.362 1.51-2.065 3.938-2.85 6.584-1.601 1.414 0.67 2.858 1.287 4.662 2.093-2.151 2.433-4.090 4.627-6.127 6.93 1.801 1.8 3.139 3.897 5.058 4.857 2.189 1.094 4.87 1.362 7.377 1.648 2.713 0.305 5.48 0.113 8.21 0.323 9.767 0.756 19.536 0.956 29.33 0.625 5.182-0.178 10.379 0.061 15.565-0.052 1.976-0.043 3.941-0.552 5.86-0.839 1.572-5.27 1.339-10.432 1.221-15.568-0.051-2.226-2.697-5.134-5.424-5.346-5.54-0.431-11.122-0.577-16.678-0.492-4.59 0.070-9.185 1.064-13.748 0.897-7.155-0.266-14.283-1.216-21.429-1.772-2.583-0.201-5.213 0.086-7.784-0.187-3.838-0.41-7.643-1.125-11.463-1.694-1.411-0.212-2.834-0.557-4.249-0.532-7.489 0.129-14.984 0.268-22.469 0.584-5.455 0.228-10.912 0.593-16.34 1.173-3.284 0.352-6.434 1.209-8.571 4.255-1.694 2.415-2.484 4.785-1.351 7.608 0.208 0.525 0.5 1.082 0.484 1.614-0.135 4.393-0.307 8.788-0.524 13.178-0.459 9.46-0.826 18.903 3.568 28.162zM395.43 745.017c1.588-3.046-0.342-3.581-1.958-4.26-3.806-1.595-7.759-2.908-11.401-4.822-3.373-1.774-6.525-4.037-9.589-6.335-10.633-7.966-19.457-17.723-26.75-28.782-3.636-5.512-6.519-11.538-9.569-17.424-1.108-2.137-1.482-4.645-0.1-6.825 1.974-3.113 1.149-5.977-0.477-8.732-4.478-7.583-6.882-15.992-9.73-24.224-3.508-10.136-6.691-20.397-10.516-30.407-1.782-4.656-4.732-8.863-7.204-13.246-0.353-0.627-0.899-1.264-1.516-1.605-5.133-2.832-5.433-7.959-6.464-12.918-2.074-9.988-4.088-20.024-6.935-29.799-1.377-4.727-4.421-9.015-7.011-13.316-3.446-5.722-4.832-12.1-6.256-18.452-2.43-10.802-6.297-21.028-11.73-30.632-1.445-2.555-3.512-4.757-5.294-7.12-1.586-2.103-3.172-4.204-5.237-6.944-4.276-0.309-9.095 0.695-14.422 2.159 1.425 2.153 2.539 4.043 3.849 5.783 6.678 8.874 11.118 18.826 14.104 29.466 1.48 5.281 2.572 10.679 4.239 15.895 1.349 4.221 3.199 8.295 5.028 12.346 0.653 1.45 1.721 2.812 2.883 3.911 4.98 4.712 8.26 10.425 9.972 17.007 1.671 6.44 2.959 12.982 4.654 19.416 1.593 6.064 4.202 11.633 8.651 16.241 1.192 1.231 1.978 2.966 2.626 4.599 4.5 11.299 8.993 22.601 13.299 33.976 0.983 2.6 1.181 5.493 1.832 8.23 1.029 4.318 2.283 8.587 3.159 12.935 0.659 3.256 0.866 6.601 0.966 9.954 0.463 2.308 4.915 2.873 2.946 5.735 2.185 3.946 4.384 7.278 5.951 10.886 2.509 5.776 5.818 10.871 10 15.594 4.075 4.597 7.431 9.828 11.166 14.733 4.282 5.625 8.381 11.306 15.399 14.159 1.913 0.775 3.318 3.31 5.746 4.149 7.254 2.501 14.45 5.164 21.685 7.715 1.218 0.428 2.52 0.608 4.004 0.956zM706.511 347.185c0.062-6.396-0.055-12.996 0.23-19.58 0.328-7.562-0.803-15.159 0.889-22.703 1.855-8.269 3.223-16.644 5.052-24.917 0.576-2.606-0.47-4.248-2.226-5.579-2.057-1.557-4.261-2.996-6.588-4.105-2.683-1.282-6.325-0.031-8.612 2.41-3.946 4.208-7.87 8.439-11.964 12.503-2.071 2.058-4.502 3.653-6.192 6.21-1.111 1.68-3.323 2.651-5.059 3.913-0.938 0.682-2.294 1.092-2.818 1.993-3.549 6.109-9.743 10.295-12.366 17.11-0.743 1.933-0.794 3.535-0.1 5.309 1.682 4.302 4.398 7.864 8.375 10.231 3.095 1.839 6.436 3.278 9.69 4.844 7.182 3.456 14.379 6.873 21.563 10.326 0.649 0.313 1.512 0.617 1.798 1.17 1.964 3.805 4.698 3.036 8.329 0.864zM673.604 326.549c9.524 0.823 18.069 0.655 26.777 2.029-0.636 3.26 2.102 6.394-1.037 9.306-0.814-0.387-1.596-0.693-2.315-1.11-4.077-2.382-8.014-4.843-12.988-5.383-3.461-0.376-6.752-1.971-10.437-4.841zM385.335 625.777c0-3.524 0.154-6.979-0.035-10.416-0.325-5.92-0.871-11.829-1.321-17.744-0.242-3.204-0.109-6.24 1.258-9.322 3.895-8.787 7.853-17.576 11.108-26.635 2.854-7.954 4.795-16.27 7.128-24.43 1.099-3.839 2.022-7.739 3.296-11.513 1.457-4.326-0.22-8.078-1.388-12.657-1.485 1.002-2.728 1.585-3.654 2.514-4.461 4.476-8.866 9.013-13.212 13.61-0.843 0.893-1.535 2.076-1.956 3.26-2.887 8.147-5.562 16.383-8.542 24.492-3.427 9.322-6.605 18.859-12.532 26.828-4.483 6.029-4.196 12.155-1.148 18.299 3.355 6.768 7.242 13.248 10.995 19.791 2.236 3.901 5.683 5.101 10.003 3.922zM190.164 365.158c2.393-0.427 5.433 1.247 6.073-2.489 0.055-0.321 1.229-0.576 1.912-0.671 4.178-0.583 8.363-1.102 12.543-1.661 1.411-0.191 2.811-0.436 4.292-1.391-1.998-0.517-3.965-1.291-5.996-1.498-5.504-0.561-11.040-0.865-16.559-1.309-1.882-0.151-3.785-0.286-5.622-0.671-0.932-0.196-1.947-0.764-2.567-1.456-4.644-5.182-9.242-10.402-13.765-15.68-2.396-2.799-5.46-4.716-8.912-5.867-1.936-0.645-4.218-0.333-6.218-0.445-1.022 2.699 0.365 4.35 1.591 5.807 3.631 4.322 6.937 8.955 12.343 11.653 0.916 0.457 1.615 2.377 1.475 3.516-0.877 7.137-6.313 16.347-12.374 21.496-4.304-1.38-4.418-1.457-4.407-5.443 0.018-7.371-2.035-14.019-7.106-19.737-2.925-3.302-6.515-5.576-10.739-6.975-1.71-0.566-3.449-0.818-4.926 0.634-0.543 4.188-1.794 8.263-0.541 12.683 1.745 6.154 3.772 12.017 8.761 16.558 2.528 2.298 4.851 4.809 7.453 7.026 2.343 1.997 5.233 2.859 8.398 3.218 6.302 0.713 12.42 0.92 18.54-1.417 4.976-1.902 8.878-4.735 11.717-9.011 1.567-2.351 3.161-4.686 4.635-6.87zM711.453 411.227c1.966-1.552 3.281-2.763 4.767-3.735 6.205-4.053 12.454-8.046 18.706-12.031 1.272-0.813 2.576-1.629 3.971-2.204 2.118-0.872 3.541-2.257 4.246-4.346 0.096-0.279 0.086-0.637 0.267-0.84 2.96-3.299 3.206-7.156 2.241-11.408 8.996-5.556 11.546-14.449 13.344-23.655 1.634-8.364 3.256-16.743 4.438-25.173 0.527-3.75 0.384-7.706-0.242-11.447-0.529-3.153-2.374-5.979-6.556-6.995-1.13 7.88-3.043 15.359-6.289 22.426-3.264 7.097-6.999 13.968-12.361 20.842-0.861-1.912-1.363-3.234-2.041-4.468-0.632-1.156-1.261-2.418-2.234-3.277-1.582-1.406-3.938-0.687-4.186 1.361-0.202 1.674 0.16 3.506 0.677 5.15 1.993 6.317 4.311 12.544 6.17 18.897 0.817 2.795 1.117 5.811 1.109 8.724-0.008 3.332-2.114 5.743-5.098 7.282-4.963 2.56-9.913 5.174-15.037 7.405-2.91 1.267-5.991 2.023-8.115 4.585-2.374 2.865-2.704 4.773-0.878 8.057 0.919 1.653 2.041 3.203 3.102 4.851zM525.127 626.21c-2.014 0-3.517 0-5.002 0-2.365 1.921-3.238 4.64-3.654 7.552-0.792 5.53-1.413 11.087-2.357 16.589-0.351 2.058-1.404 3.997-2.144 5.99-0.841 2.278-1.862 4.506-2.5 6.84-1.015 3.698-2.41 6.68-6.021 8.961-2.721 1.721-4.758 5.039-6.265 8.065-2.571 5.16-4.463 10.657-6.688 15.993-0.774 1.861-1.63 3.694-2.554 5.486-1.722 3.345-1.755 3.328-0.642 7.67 2.547 0.547 5.288 1.138 7.969 1.716 6.050-15.317 11.966-30.3 18.102-45.84 1.328 2.422 2.435 4.441 3.723 6.794 4.412-4.854 8.622-9.284 12.582-13.93 1.929-2.263 2.227-5.242 2.1-8.157-0.358-8.193-3.356-15.692-6.193-23.23-0.092-0.246-0.38-0.42-0.456-0.5zM714.094 360.748c-0.987 0.070-1.656 0.156-2.326 0.158-4.092 0.016-8.19 0.109-12.278-0.005-7.584-0.214-17.992 6.167-20.367 17.69-1.125 5.457 2.011 12.944 7.472 15.664 2.586-4 5.618-7.846 7.725-12.157 2.771-5.675 6.939-8.652 13.002-9.425 3.386-0.432 6.588-1.818 10.155-1.449 2.74 0.281 4.474-1.426 5.7-3.994 1.135-2.384 1.606-4.346-0.393-6.481-0.696-0.745-0.819-2.016-1.321-2.984-1.405-2.71-2.754-5.468-4.405-8.022-0.396-0.617-2.006-0.919-2.825-0.646-1.277 0.425-1.88 1.711-1.097 3.079 1.487 2.594 1.379 5.333 0.959 8.573zM718.422 281.109c-1.858 10.139-4.507 19.768-4.027 29.898 0.169 3.584-0.728 7.24-1.336 10.829-0.522 3.069-0.169 5.88 1.67 8.435 1.45 2.014 1.97 2.12 4.819 1.177 1.497-15.005 4.677-29.565 10.264-43.659-2.899-3.644-5.914-6.819-11.39-6.68zM28.287-35.137c-1.572-1.376-2.802-2.856-4.39-3.74-2.344-1.308-3.907-3.039-4.864-5.429-1.677-4.181-3.43-8.335-5.157-12.495-0.261-0.628-0.369-1.487-0.857-1.825-3.732-2.576-7.336-5.507-13.020-5.369 0.245 1.383 0.213 2.576 0.669 3.558 2.529 5.465 5.284 10.832 7.731 16.329 1.153 2.585 1.675 5.424 2.713 8.063 0.513 1.308 1.292 2.766 2.41 3.548 1.434 1.002 3.357 1.332 5.017 2.064 1.625 0.717 2.978 0.365 4.294-0.645 1.526-1.169 3.084-2.298 5.453-4.058zM385.052 671.47c-0.135 1.457-0.413 2.641-0.329 3.791 0.471 6.315 0.76 12.645 3.871 18.29 1.17 2.125 1.746 4.719 2.432 7.159 0.765 2.715 1.991 4.814 4.312 6.114 1.973 1.106 3.799 2.563 6.247 4.248 0-1.905 0.239-3.362-0.044-4.668-0.797-3.656-1.919-7.218-2.709-10.876-0.82-3.801-1.531-7.645-2.051-11.514-0.426-3.176-1.394-5.628-3.942-7.375-2.413-1.655-4.118-4.658-7.788-5.169zM396.022 664.883c-1.227-4.526-2.437-9.058-3.688-13.575-0.651-2.344-1.455-4.371-3.772-5.957-1.444-0.986-1.769-3.587-2.681-5.657-0.974-0.294-2.599-0.374-3.641-1.188-2.285-1.786-4.3-0.731-6.431 0.016-2.42 0.849-2.075 2.889-2.315 4.846-0.916 7.541 4.487 11.442 9.149 15.619 2.12 1.899 4.923 3.070 7.482 4.452 1.67 0.9 3.454 1.59 5.185 2.372 0.238-0.31 0.475-0.621 0.711-0.929z" />
<glyph unicode="&#xe912;" glyph-name="magnifier" horiz-adv-x="1058" d="M812.229 231.269c145.323 189.32 118.805 458.924-60.619 616.303s-450.184 148.527-618.946-20.235c-168.762-168.762-177.614-439.522-20.235-618.946s444.049-195.702 633.369-50.379l194.566-187.739c23.066-23.037 50.192-33.277 73.258-10.24 23.037 23.066 16.21 53.606-6.827 76.671l-194.566 194.566zM663.527 204.462c-61.644-43.302-135.164-66.495-210.497-66.404-203.745 0-368.913 165.168-368.913 368.913s165.168 368.913 368.913 368.913c203.745 0 368.913-165.168 368.913-368.913 0.091-75.333-23.102-148.853-66.404-210.497-24.77-36.052-55.959-67.241-92.011-92.011z" />
<glyph unicode="&#xe913;" glyph-name="quote" horiz-adv-x="1331" d="M720.142 425.252l389.211 520.564c6.215 9.456 17.091 14.184 27.967 14.184h130.514c24.86 0 41.951-28.368 31.075-52.007l-242.813-462.29c74.605-49.912 123.729-134.94 123.729-231.442 0-153.679-124.582-278.261-278.261-278.261s-278.261 124.582-278.261 278.261c0 84.365 37.545 159.961 96.837 210.991zM96.837 425.252l389.211 520.564c6.215 9.456 17.091 14.184 27.967 14.184h130.514c24.86 0 41.951-28.368 31.075-52.007l-242.813-462.29c74.605-49.912 123.729-134.94 123.729-231.442 0-153.679-124.582-278.261-278.261-278.261s-278.261 124.582-278.261 278.261c0 84.365 37.545 159.961 96.837 210.991z" />
<glyph unicode="&#xe914;" glyph-name="form-calendar" d="M853.316 550.4c0.011 78.846 0.017 136.395 0.017 136.395 0 0.024-40.778 0.044-102.4 0.062v-33.956c0-18.907-15.151-34.233-34.133-34.233-18.851 0-34.133 15.31-34.133 34.233v33.973c-104.256 0.022-237.108 0.037-341.333 0.047v-34.020c0-18.907-15.151-34.233-34.133-34.233-18.851 0-34.133 15.31-34.133 34.233v34.026c-61.527 0.005-102.231 0.008-102.231 0.008-0.035 0-0.065-57.616-0.089-136.533h682.569zM853.306 482.133h-682.578c-0.041-166.977-0.061-375.328-0.061-375.328 0-0.097 682.498-0.138 682.498-0.138 0.066 0 0.114 208.466 0.141 375.467zM750.933 755.2h102.231c37.796 0 68.436-30.571 68.436-68.405v-579.99c0-37.779-30.618-68.405-68.436-68.405h-682.329c-37.796 0-68.436 30.571-68.436 68.405v579.99c0 37.779 30.618 68.405 68.436 68.405h102.231v68.167c0 18.907 15.151 34.233 34.133 34.233 18.851 0 34.133-15.31 34.133-34.233v-68.167h341.333v68.167c0 18.907 15.151 34.233 34.133 34.233 18.851 0 34.133-15.31 34.133-34.233v-68.167z" />
<glyph unicode="&#xe915;" glyph-name="form-arrow" d="M838.088 436.194h-838.088v65.054h806.97l-200.57 116.799 38.111 55.233 348.56-212.992-352.656-212.992-34.015 55.233 231.689 133.665z" />
<glyph unicode="&#xe916;" glyph-name="form-chevron" d="M1033.513 632.053l-59.894 58.955-462.559-502.993-460.681 502.993-59.894-58.955 521.513-553.313z" />
<glyph unicode="&#xe917;" glyph-name="form-email" d="M938.057 806.4h-903.314c-19.188 0-34.743-15.555-34.743-34.743v-625.371c0-19.188 15.555-34.743 34.743-34.743h903.314c19.188 0 34.743 15.555 34.743 34.743v625.371c0 19.188-15.555 34.743-34.743 34.743zM881.079 736.914l-394.679-303.583-394.679 303.583h789.358zM69.486 181.029v485.323l395.756-304.417c12.479-9.581 29.838-9.581 42.317 0l395.756 304.417v-485.323h-833.829z" />
<glyph unicode="&#xe918;" glyph-name="form-number" d="M120.913 697.169h71.728v-478.185h-86.757v349.759l-105.884-101.785v112.715l120.913 117.497zM397.577 297.542h222.015v-78.559h-336.779v82.658l162.583 153.019c56.699 53.284 76.51 76.51 76.51 110.666s-25.959 60.115-63.53 60.115h-6.831c-40.987 0-71.728-28.691-73.094-77.876h-90.855c0 97.686 71.045 156.435 166.682 156.435s158.484-56.699 158.484-135.258c0-61.481-28.691-99.736-90.855-157.118l-124.328-114.081zM851.853 212.152c-100.419 0-169.414 52.6-169.414 138.674h90.855c3.416-34.839 29.374-60.115 75.143-60.115h6.831c54.65 0 77.193 34.156 77.193 64.897 0 40.987-34.839 62.847-84.707 62.847h-32.107v78.559h28.691c51.917 0 85.39 25.959 85.39 66.946 0 34.156-30.057 61.481-71.045 61.481h-6.831c-35.522 0-66.263-22.543-69.678-61.481h-90.855c0 81.975 70.362 140.040 163.949 140.040 102.468 0 165.316-61.481 165.316-133.209 0-54.65-33.473-97.003-84.024-110.666 50.551-13.662 87.44-56.699 87.44-111.349 0-88.806-73.094-136.624-172.147-136.624z" />
<glyph unicode="&#xe919;" glyph-name="form-phone" d="M428.255 655.939l-100.163 174.758c-11.401 19.948-34.284 30.366-56.815 25.866l-85.141-16.882c-25.352-4.804-46.43-22.35-55.752-46.41-69.168-179.998-7.249-409.646 154.111-571.488l1.314-1.314c161.825-161.339 391.481-223.264 571.465-154.088 24.062 9.323 41.609 30.402 46.413 55.755l16.885 85.144c4.478 22.528-5.936 45.399-25.868 56.811l-174.765 100.169c-20.929 11.955-47.264 8.464-64.355-8.531l-15.959-15.933c-25.863-25.812-60.382-60.269-77.039-76.874-54.2 19.488-103.358 50.845-143.88 91.776-40.923 40.534-72.278 89.695-91.773 143.895 20.381 20.431 67.599 67.737 92.811 92.986 16.988 17.099 20.471 43.434 8.512 64.361zM376.066 635.72l-62.053-62.163c-47.764-47.861-55.956-56.963-51.773-69.501 20.502-64.681 70.982-142.524 119.22-190.243 47.658-48.173 122.681-100.442 187.265-120.956 12.78-4.26 22.119 5.078 61.028 43.901l70.89 70.754c2.479 2.457 6.294 2.956 9.322 1.22l154.004-81.278c2.906-1.654 4.423-4.985 3.764-8.262l-16.467-83.007c-1.828-9.719-8.47-17.843-17.631-21.565-159.419-61.275-364.343-4.916-509.908 140.212l-1.231 1.232c-145.147 145.58-201.507 350.503-140.236 509.93 3.723 9.16 11.846 15.801 21.564 17.627l73.005 16.464c3.272 0.646 6.592-0.865 8.255-3.757l92.193-151.269c1.74-3.031 1.244-6.851-1.211-9.338z" />
<glyph unicode="&#xe91a;" glyph-name="form-upload" d="M909.506 373.304l63.294 0.959-2.877-363.461h-915.846l-2.877 363.461h62.335v-301.126h795.971v300.167zM253.549 523.868l-42.196 46.032 299.208 287.7 309.757-287.7-42.196-46.032-233.996 220.57v-558.139h-63.294v556.221l-227.283-218.652z" />
<glyph unicode="&#xe91b;" glyph-name="tripadvisor" d="M512-64c282.77 0 512 229.23 512 512s-229.23 512-512 512c-282.77 0-512-229.23-512-512s229.23-512 512-512zM615.876 695.645c23.006-3.263 45.535-9.060 67.788-15.922 38.861-12.004 75.532-28.681 110.019-50.315 2.4-1.493 5.603-2.441 8.43-2.441 40.517-0.168 81.009-0.109 121.476-0.143 3.261 0 6.506-0.344 9.759-0.528 0-0.797 0.117-1.132-0.017-1.309-1.89-2.928-3.805-5.797-5.703-8.707-13.748-21.148-25.489-43.252-32.414-67.697-0.761-2.617-0.912-4.824 0.861-7.399 36.060-51.943 47.567-108.969 32.497-170.442-13.213-53.914-44.021-95.95-90.827-125.705-33.459-21.282-70.422-31.416-109.919-31.634-16.583-0.101-33.099 2.139-49.306 6.35-39.497 10.285-73.349 30.023-101.238 59.937-3.671 3.926-7.142 8.028-11.064 12.457-14.752-22.054-29.269-43.747-44.13-66.002-14.81 22.197-29.127 43.68-43.411 65.080-0.987-0.52-1.271-0.579-1.463-0.763-0.326-0.268-0.602-0.596-0.87-0.906-33.735-39.972-76.184-64.476-127.907-72.671-28.759-4.572-57.259-2.928-85.199 4.798-39.597 10.914-73.249 31.869-100.436 62.781-26.577 30.233-43.093 65.331-49.306 105.245-7.1 37.237 1.555 73.158 3.705 81.874 6.255 25.334 17.16 48.596 32.129 69.987 1.054 1.518 1.422 4.203 0.92 6.015-6.105 22.457-16.625 42.883-28.943 62.445-3.128 4.974-6.874 9.58-10.336 14.353v1.661c0.694-0.092 1.38-0.218 2.057-0.218 41.445-0.017 82.882-0.034 124.328 0.050 1.806 0 3.813 0.747 5.352 1.736 29.119 18.74 60.144 33.588 92.742 45.148 23.516 8.322 47.508 14.823 71.986 19.571 23.7 4.597 47.525 7.843 71.601 9.429 58.714 4.505 105.629-1.728 136.838-6.115zM563.919 421.074c0-91.294 73.842-165.87 164.527-165.517 91.028 0.327 164.535 72.814 164.469 165.115-0.067 95.119-76.987 166.625-167.998 164.779-89.848-1.887-160.179-74.534-160.998-164.377zM317.128 586.063c-88.527 0.772-165.715-73.342-164.168-167.749 1.438-88.031 73.775-162.674 166.016-161.877 90.183 0.78 162.671 74.643 162.838 164.1 0.134 91.907-73.24 165.526-164.686 165.526zM325.29 629.131c50-3.062 93.938-20.544 131.051-54.401 37.038-33.79 58.739-75.943 66.625-125.512 8.12 48.982 29.244 90.732 65.588 124.195 36.411 33.488 79.746 51.062 128.936 54.778-58.363 26.030-119.921 37.086-183.268 38.311-72.011 1.418-142.048-9.228-208.933-37.372zM728.111 525.228c56.323 0.101 101.941-45.425 101.941-101.864 0-56.657-44.841-100.463-97.743-102.476-59.082-2.273-106.356 44.938-106.34 102.225 0.050 57.932 47.659 103.072 102.142 102.116zM794.544 423.113c-0.025 36.835-29.713 66.757-66.165 66.757-36.879 0-66.901-29.771-67.060-66.489-0.134-36.558 30.047-66.975 66.575-67.076 36.603-0.143 66.667 30.048 66.65 66.808zM314.954 525.228c56.289 0.059 101.974-45.542 101.841-101.965-0.167-57.127-45.050-99.96-97.024-102.334-59.316-2.726-107.176 44.703-107.067 102.292 0.117 58.343 48.052 102.98 102.25 102.007zM381.312 423.339c-0.117 37.053-29.98 66.59-67.269 66.522-35.976-0.067-66.107-30.518-66.032-66.732 0.092-36.633 30.198-66.757 66.834-66.858 36.419-0.084 66.558 30.334 66.466 67.068zM728.162 457.011c18.665 0.017 33.969-15.343 33.794-33.957-0.176-18.656-15.228-33.773-33.584-33.781-18.908 0-34.095 14.982-34.053 33.546 0.033 19.26 14.794 34.176 33.844 34.192zM314.778 457.313c18.95 0.017 34.178-15.167 34.253-34.117 0.075-18.782-15.295-34.209-34.153-34.259-19.309-0.042-34.203 14.923-34.187 34.402 0 19.109 14.86 33.949 34.086 33.974z" />
<glyph unicode="&#xe91c;" glyph-name="instergram" horiz-adv-x="1041" d="M520.533-64c282.77 0 512 229.23 512 512s-229.23 512-512 512c-282.77 0-512-229.23-512-512s229.23-512 512-512zM728.841 187.648h-416.615c-1.108 0.178-2.223 0.394-3.331 0.528-22.905 2.944-42.16 20.43-47.26 42.986-0.595 2.632-0.974 5.301-1.45 7.947v417.76c0.171 0.974 0.372 1.94 0.506 2.914 3.286 23.374 20.355 41.952 43.424 47.208 2.483 0.565 5.018 0.907 7.538 1.36h417.76c0.966-0.171 1.926-0.387 2.907-0.513 23.634-3.234 42.881-21.344 47.439-44.681 0.446-2.275 0.758-4.565 1.123-6.847v-416.622c-0.379-2.32-0.706-4.669-1.152-6.981-4.156-21.389-21.53-39.127-42.792-43.64-2.676-0.58-5.39-0.959-8.096-1.42zM316.515 497.223v-1.405c0-77.057-0.007-154.115 0.007-231.172 0-11.085 9.598-20.616 20.682-20.616 122.191-0.007 244.375-0.007 366.567 0 11.189 0 20.734 9.516 20.734 20.682 0.007 76.968 0 153.929 0 230.889v1.598h-49.706c7.018-22.43 9.174-45.246 6.423-68.5-2.766-23.262-10.259-44.911-22.467-64.902-12.215-20.013-28.050-36.592-47.439-49.788-50.256-34.228-116.422-37.239-169.749-7.308-26.957 15.114-48.123 36.191-62.88 63.348-22.013 40.525-25.53 83.057-12.616 127.187-16.489-0.015-32.912-0.015-49.558-0.015zM520.537 553.516c-57.75 0.037-104.698-46.428-105.509-103.918-0.833-59.036 46.428-105.836 103.085-107.055 58.955-1.264 106.639 45.84 107.88 103.13 1.271 59.081-46.383 107.88-105.457 107.843zM678.763 574.667v0.097c8.564 0 17.159-0.164 25.73 0.045 11.025 0.275 20.006 9.724 20.006 20.764 0.007 16.437 0.007 32.882 0 49.32 0 11.791-9.33 21.173-21.106 21.181-16.393 0.007-32.786 0.015-49.186 0-11.746-0.015-21.106-9.419-21.114-21.21-0.007-16.296-0.052-32.592 0.059-48.896 0.015-2.431 0.476-4.959 1.249-7.263 2.944-8.676 10.891-13.999 20.623-14.044 7.91-0.015 15.82 0.007 23.738 0.007z" />
<glyph unicode="&#xe91d;" glyph-name="facebook" horiz-adv-x="1041" d="M520.533-64c282.77 0 512 229.23 512 512s-229.23 512-512 512c-282.77 0-512-229.23-512-512s229.23-512 512-512zM448.26 169.478v278.544h-57.497v95.992h57.497v57.633c0 78.31 32.466 124.876 124.708 124.876h76.793v-96.002h-48.001c-35.907 0-38.282-13.415-38.282-38.451l-0.13-48.045h86.958l-10.175-95.992h-76.782v-278.555h-115.087z" />
<glyph unicode="&#xe91e;" glyph-name="twitter" d="M512-64c-282.77 0-512 229.23-512 512s229.23 512 512 512c282.77 0 512-229.23 512-512s-229.23-512-512-512zM583.12 647.969c-44.702-16.27-72.954-58.211-69.735-104.129l1.073-17.716-17.881 2.169c-65.086 8.316-121.947 36.517-170.226 83.882l-23.603 23.501-6.079-17.355c-12.874-38.687-4.649-79.543 22.172-107.021 14.305-15.185 11.086-17.355-13.589-8.316-8.583 2.892-16.093 5.062-16.808 3.977-2.503-2.531 6.079-35.433 12.874-48.449 9.298-18.078 28.252-35.794 48.993-46.279l17.523-8.316-20.742-0.362c-20.027 0-20.742-0.362-18.596-7.954 7.152-23.501 35.404-48.449 66.874-59.296l22.172-7.593-19.311-11.57c-28.609-16.632-62.225-26.032-95.841-26.755-16.093-0.362-29.325-1.808-29.325-2.892 0-3.616 43.629-23.863 69.020-31.817 76.172-23.501 166.649-13.378 234.597 26.755 48.278 28.563 96.556 85.328 119.086 140.285 12.159 29.286 24.318 82.797 24.318 108.467 0 16.632 1.073 18.801 21.099 38.687 11.801 11.57 22.887 24.224 25.033 27.84 3.576 6.87 3.219 6.87-15.020 0.723-30.397-10.847-34.689-9.401-19.669 6.87 11.086 11.57 24.318 32.54 24.318 38.687 0 1.085-5.364-0.723-11.444-3.977-6.437-3.616-20.742-9.039-31.47-12.293l-19.311-6.146-17.523 11.931c-9.656 6.508-23.245 13.739-30.397 15.909-18.238 5.062-46.133 4.339-62.583-1.446z" />
<glyph unicode="&#xe91f;" glyph-name="whatsapp" d="M512-64c-282.77 0-512 229.23-512 512s229.23 512 512 512c282.77 0 512-229.23 512-512s-229.23-512-512-512zM819.2 455.904c0 165.285-135.013 299.256-301.6 299.296-166.607 0-301.6-133.991-301.62-299.276 0-56.497 15.807-109.429 43.255-154.507l-54.434-160.617 166.988 53.031c43.235-23.681 92.9-37.204 145.771-37.204 166.607 0 301.64 133.991 301.64 299.276zM520.064 706.695c138.205 0 250.67-112.433 250.63-250.591 0-138.217-112.445-250.63-250.63-250.63-50.886 0-98.268 15.247-137.868 41.429l-96.268-30.832 31.284 93.056c-29.997 41.309-47.738 92.078-47.738 146.918 0 138.217 112.405 250.65 250.591 250.65zM688.683 390.263c-2.027 2.993-7.33 4.817-15.264 8.464-7.912 3.647-47.085 21.19-54.35 23.568-7.33 2.438-12.634 3.667-17.937-3.608-5.239-7.275-20.503-23.608-25.181-28.484-4.635-4.856-9.27-5.471-17.226-1.883-7.955 3.687-33.61 11.298-64.009 36.016-23.65 19.267-39.625 42.994-44.239 50.268-4.678 7.255-0.474 11.18 3.471 14.787 3.557 3.271 7.955 8.484 11.944 12.745 3.988 4.222 5.304 7.215 7.955 12.071 2.609 4.856 1.294 9.078-0.668 12.745-1.983 3.647-17.872 39.327-24.534 53.856-6.619 14.51-13.237 12.111-17.894 12.111-4.635 0-9.939 0.595-15.242 0.595s-13.927-1.764-21.192-9.039c-7.265-7.275-27.833-24.817-27.833-60.536 0-35.759 28.479-70.229 32.468-75.065 4.010-4.817 55.062-80.516 135.929-109.575 80.911-29.039 80.911-19.346 95.485-18.117 14.617 1.229 47.085 17.542 53.682 34.47 6.64 17.007 6.64 31.576 4.635 34.609z" />
<glyph unicode="&#xe920;" glyph-name="youtube" d="M512-64c-282.77 0-512 229.23-512 512s229.23 512 512 512c282.77 0 512-229.23 512-512s-229.23-512-512-512zM511.788 686.933c0 0-213.361 0-266.912-13.915-28.673-8.011-52.283-31.622-60.295-60.716-13.915-53.551-13.915-164.45-13.915-164.45s0-111.32 13.915-164.028c8.012-29.094 31.2-52.283 60.295-60.295 53.973-14.336 266.912-14.337 266.912-14.337s213.784 0 267.334 13.915c29.095 8.012 52.283 30.779 59.873 60.295 14.337 53.13 14.337 164.028 14.337 164.028s0.421 111.321-14.337 164.872c-7.59 29.095-30.778 52.283-59.873 59.873-53.55 14.758-267.334 14.759-267.334 14.759zM409.767 584.447l245.788-141.864-245.788-141.28v283.144z" />
</font>
</defs>
</svg>
